Admet les offres

PAUL YOUNG - OTHER VOICES - CD - 1990 - DISCO VERIFICADO

Livraison à partir de 5,50€
Paiement tc Accepte le Paiement tc

Nombre des éléments : 1

État du lot: Normal (avec des signes d'utilisation normale)

El disco tiene marcas pero se ha leído con precisión con el programa Exact Audio Copy (ver informe al final)

+++

Bajo ningún concepto se envía ordinario, todos los envíos son certificados

Gastos de envío gratis para pedidos superiores a 30 euros con destino a España peninsular

Vea coste de envío en el apartado "Formas de pago y envío"

Fotos reales del artículo

+++

Exact Audio Copy V1.6 from 23. October 2020

Archivo Log de extracciones desde 14. Enero 2023, 19:03

Paul Young / Other Voices

Usar unidad : hp DVDRAM GU90N Adapter: 1 ID: 0

Modo de Lectura : : Seguro

Utilizar corriente precisa : Sí

Caché de audio por defecto : No

Utilizar los punteros C2 : Sí

Corrección de Desplazamiento de Lectura : : 102

Sobreleer tanto en Lead-In como en Lead-Out : No

Rellenar las muestras faltantes con silencios : Sí

Eliminar silencios inicial y final : No

Muestras nulas usadas en los calculos de CRC : Sí

Interfaz usada : Interfaz propio de Win32 para Windowns NT y 2000

Manejo de huecos : No se detectó, por lo que anexa a la pista anterior

Formato de Salida utilizado : : Rutinas WAV Internas

Formato de muestra : 44.100 Hz; 16 Bit; Estéreo

TOC extraídos del CD

Pista | Inicio | Longitud | Inicio del sector | Fin del sector

------------------------------------------------------------------

1 | 0:00.00 | 4:10.70 | 0 | 18819

2 | 4:10.70 | 5:10.40 | 18820 | 42109

3 | 9:21.35 | 3:34.00 | 42110 | 58159

4 | 12:55.35 | 3:50.47 | 58160 | 75456

5 | 16:46.07 | 5:21.53 | 75457 | 99584

6 | 22:07.60 | 4:39.42 | 99585 | 120551

7 | 26:47.27 | 4:13.60 | 120552 | 139586

8 | 31:01.12 | 4:33.08 | 139587 | 160069

9 | 35:34.20 | 5:03.47 | 160070 | 182841

10 | 40:37.67 | 5:08.18 | 182842 | 205959

Pista 1

Nombre de Archivo 01. Heaven Can Wait.wav

Nivel Pico 99.8 %

Velocidad de extracción 4.0 X

Calidad de Pista 100.0 %

Comprobación CRC 1F315C49

Copiar CRC 1F315C49

Extraida con precisión (confidencia 17) [D2B4A68B] (AR v2)

Copia OK

Pista 2

Nombre de Archivo 02. A Little Bit of Love.wav

Nivel Pico 79.2 %

Velocidad de extracción 4.6 X

Calidad de Pista 100.0 %

Comprobación CRC ECF520A0

Copiar CRC ECF520A0

Extraida con precisión (confidencia 17) [F0785037] (AR v2)

Copia OK

Pista 3

Nombre de Archivo 03. Softly Whispering I Love You.wav

Nivel Pico 100.0 %

Velocidad de extracción 4.9 X

Calidad de Pista 100.0 %

Comprobación CRC A6657364

Copiar CRC A6657364

Extraida con precisión (confidencia 17) [C50C1D31] (AR v2)

Copia OK

Pista 4

Nombre de Archivo 04. Together.wav

Nivel Pico 80.1 %

Velocidad de extracción 5.3 X

Calidad de Pista 100.0 %

Comprobación CRC 51726858

Copiar CRC 51726858

Extraida con precisión (confidencia 17) [D40DCD04] (AR v2)

Copia OK

Pista 5

Nombre de Archivo 05. Stop On By.wav

Nivel Pico 81.8 %

Velocidad de extracción 5.8 X

Calidad de Pista 100.0 %

Comprobación CRC 0665E607

Copiar CRC 0665E607

Extraida con precisión (confidencia 17) [57649C6A] (AR v2)

Copia OK

Pista 6

Nombre de Archivo 06. Our Time Has Come.wav

Nivel Pico 100.0 %

Velocidad de extracción 6.4 X

Calidad de Pista 100.0 %

Comprobación CRC 848C2778

Copiar CRC 848C2778

Extraida con precisión (confidencia 17) [02E98132] (AR v2)

Copia OK

Pista 7

Nombre de Archivo 07. Oh Girl.wav

Nivel Pico 99.9 %

Velocidad de extracción 6.8 X

Calidad de Pista 100.0 %

Comprobación CRC D9B28D51

Copiar CRC D9B28D51

Extraida con precisión (confidencia 16) [A7842412] (AR v2)

Copia OK

Pista 8

Nombre de Archivo 08. Right About Now.wav

Nivel Pico 81.9 %

Velocidad de extracción 6.8 X

Calidad de Pista 99.9 %

Comprobación CRC 31D62C53

Copiar CRC 31D62C53

Extraida con precisión (confidencia 17) [3D0A9835] (AR v2)

Copia OK

Pista 9

Nombre de Archivo 09. It’s What She Didn’t Say.wav

Nivel Pico 98.8 %

Velocidad de extracción 7.2 X

Calidad de Pista 100.0 %

Comprobación CRC 6360EE13

Copiar CRC 6360EE13

Extraida con precisión (confidencia 17) [692C61FF] (AR v2)

Copia OK

Pista 10

Nombre de Archivo 10. Calling You.wav

Nivel Pico 65.5 %

Velocidad de extracción 7.8 X

Calidad de Pista 100.0 %

Comprobación CRC C548131F

Copiar CRC C548131F

Extraida con precisión (confidencia 14) [6B582EA2] (AR v2)

Copia OK

Todas las pistas extraidas con precisión

Sin Errores

Final del Informe

---- CUETools DB Plugin V2.1.6

[CTDB TOCID: VkouoQZSbAi2dPfHn7h4V7Ygoz8-] found

Submit result: VkouoQZSbAi2dPfHn7h4V7Ygoz8- has been confirmed

Track | CTDB Status

1 | (45/45) Accurately ripped

2 | (45/45) Accurately ripped

3 | (45/45) Accurately ripped

4 | (45/45) Accurately ripped

5 | (45/45) Accurately ripped

6 | (45/45) Accurately ripped

7 | (45/45) Accurately ripped

8 | (45/45) Accurately ripped

9 | (45/45) Accurately ripped

10 | (43/45) Accurately ripped

avatar gilypo
À partir de 19/11/2014
Espagne (Cantabria)
Vendeur enregistré en tant que particulier.