Nous utilisons nos propres cookies et ceux de tiers pour analyser nos services. Si vous continuez à naviguer, nous considérons que vous acceptez leur utilisation. Plus d'informations ICI

JOSE LUIS PERALES - POR SI QUIERES CONOCERME - CD - 1995 - DIFUSION - DISCO COMPROBADO


4 fotos JOSE LUIS PERALES - POR SI QUIERES CONOCERME - CD - 1995 - DIFUSION - DISCO COMPROBADO (Música - CD's Pop)

  • Livraison gratuite (envoi recommandé)
  • Éléments: 1

    État: Normal (avec des signes d'utilisation normale)


    El cd tiene marcas pero se ha escuchado completamente sin problema y se ha verificado correctamente con el programa Exact Audio Copy (ver informe al final)

    +++

    Envío certificado gratuito a toda España (incluido Canarias)

    +++

    Si adquiere más artículos de mi tienda se lo meto en el mismo paquete y no pagaría gastos de envío (excepto Canarias, consultar peso)

    Fotos reales del artículo

    +++

    Exact Audio Copy V1.6 from 23. October 2020

    Archivo Log de extracciones desde 17. Septiembre 2021, 0:47

    Artista desconocido / Título desconocido

    Usar unidad  : PIONEER BD-RW   BDR-209M   Adapter: 1  ID: 0

    Modo de Lectura   :        : Seguro
    Utilizar corriente precisa : Sí
    Caché de audio por defecto : No
    Utilizar los punteros C2   : No

    Corrección de Desplazamiento de Lectura :     : 667
    Sobreleer tanto en Lead-In como en Lead-Out   : No
    Rellenar las muestras faltantes con silencios : Sí
    Eliminar silencios inicial y final            : No
    Muestras nulas usadas en los calculos de CRC  : Sí
    Interfaz usada                                : Interfaz propio de Win32 para Windowns NT y 2000
    Manejo de huecos                              : No se detectó, por lo que anexa a la pista anterior

    Formato de Salida utilizado :  : Rutinas WAV Internas
    Formato de muestra             : 44.100 Hz; 16 Bit; Estéreo


    TOC extraídos del CD

         Pista |  Inicio  | Longitud | Inicio del sector | Fin del sector 
        ------------------------------------------------------------------
            1  |  0:00.32 |  3:36.05 |          32       |      16236     
            2  |  3:36.37 |  3:05.00 |       16237       |      30111     
            3  |  6:41.37 |  4:39.50 |       30112       |      51086     
            4  | 11:21.12 |  3:12.63 |       51087       |      65549     
            5  | 14:34.00 |  4:09.37 |       65550       |      84261     
            6  | 18:43.37 |  2:43.63 |       84262       |      96549     
            7  | 21:27.25 |  3:13.50 |       96550       |     111074     
            8  | 24:41.00 |  4:38.00 |      111075       |     131924     


    Pista  1

         Nombre de Archivo 01 Pista01.wav

         Nivel Pico 100.0 %
         Velocidad de extracción 8.0 X
         Calidad de Pista 100.0 %
         Comprobación CRC 8AC77D31
         Copiar CRC 8AC77D31
         Pista sin datos en Accuraterip
         Copia OK

    Pista  2

         Nombre de Archivo 02 Pista02.wav

         Nivel Pico 94.7 %
         Velocidad de extracción 8.6 X
         Calidad de Pista 100.0 %
         Comprobación CRC 8BF31914
         Copiar CRC 8BF31914
         Pista sin datos en Accuraterip
         Copia OK

    Pista  3

         Nombre de Archivo 03 Pista03.wav

         Nivel Pico 84.7 %
         Velocidad de extracción 9.2 X
         Calidad de Pista 100.0 %
         Comprobación CRC 4E07E591
         Copiar CRC 4E07E591
         Pista sin datos en Accuraterip
         Copia OK

    Pista  4

         Nombre de Archivo 04 Pista04.wav

         Nivel Pico 97.0 %
         Velocidad de extracción 9.6 X
         Calidad de Pista 100.0 %
         Comprobación CRC 0DCA0E03
         Copiar CRC 0DCA0E03
         Pista sin datos en Accuraterip
         Copia OK

    Pista  5

         Nombre de Archivo 05 Pista05.wav

         Nivel Pico 100.0 %
         Velocidad de extracción 10.0 X
         Calidad de Pista 100.0 %
         Comprobación CRC D020FEEE
         Copiar CRC D020FEEE
         Pista sin datos en Accuraterip
         Copia OK

    Pista  6

         Nombre de Archivo 06 Pista06.wav

         Nivel Pico 96.7 %
         Velocidad de extracción 10.3 X
         Calidad de Pista 100.0 %
         Comprobación CRC F120525B
         Copiar CRC F120525B
         Pista sin datos en Accuraterip
         Copia OK

    Pista  7

         Nombre de Archivo 07 Pista07.wav

         Nivel Pico 78.8 %
         Velocidad de extracción 10.6 X
         Calidad de Pista 100.0 %
         Comprobación CRC 1460788C
         Copiar CRC 1460788C
         Pista sin datos en Accuraterip
         Copia OK

    Pista  8

         Nombre de Archivo 08 Pista08.wav

         Nivel Pico 99.8 %
         Velocidad de extracción 11.0 X
         Calidad de Pista 100.0 %
         Comprobación CRC 0DA2FBAC
         Copiar CRC 0DA2FBAC
         Pista sin datos en Accuraterip
         Copia OK


    Ninguna pista tiene datos en AccurateRip

    Sin Errores

    Final del Informe

    ---- CUETools DB Plugin V2.1.6

    [CTDB TOCID: ymwUhS5BdDyaD49mUkphIuT9m6c-] disk not present in database
    Submit result: ymwUhS5BdDyaD49mUkphIuT9m6c- has been uploaded

  • Paiement tc Le vendeur accepte le Paiement tc.
    Méthode de paiement sûre et sécurisée, une passerelle intégrée de paiement par carte, rapide et efficace.

gilypo

(1.868)
Espagne (Cantabria)
Ancienneté: 19/11/2014

  Ajouter aux favoris

Informer sur ce lot